#TITLE:Bloody Tears Again;
#SUBTITLE:;
#ARTIST:S.S.H.;
#TITLETRANSLIT:;
#SUBTITLETRANSLIT:;
#ARTISTTRANSLIT:;
#CREDIT:;
#BANNER:BTA-ba.png;
#BACKGROUND:BTA-bg.jpg;
#LYRICSPATH:;
#CDTITLE:Mus1c.png;
#MUSIC:Bloody Tears Again.mp3;
#OFFSET:0.000;
#SAMPLESTART:25.862;
#SAMPLELENGTH:12.000;
#SELECTABLE:YES;
#BPMS:0.000=232.000;
#STOPS:;
#BGCHANGES:;
// cache tags:
#FIRSTBEAT:16.000;
#LASTBEAT:389.000;
#SONGFILENAME:Songs/nhac/Bloody Tears Again/BTA.sm;
#HASMUSIC:1;
#HASBANNER:1;
#MUSICLENGTH:103.653;
// end cache tags

//---------------dance-single - ----------------
#NOTES:
     dance-single:
     :
     Hard:
     10:
     1.000,1.000,1.000,0.521,0.304,452.000,241.000,54.000,0.000,1.000:
0000
0000
0000
0000
,
0000
0000
0000
0000
,
0000
0000
0000
0000
,
0000
0000
0000
0000
,
1001
0000
0000
0000
0000
0000
0000
0000
0000
1001
0000
0000
0100
0000
0010
0000
0100
0000
0010
0000
0100
0000
0010
0000
,
0100
0010
0100
0010
0100
0010
0100
0010
0100
0010
0100
0010
,
0100
0010
0100
0010
0100
0010
0100
0010
0100
0010
0100
0010
,
0100
0000
0010
0000
0100
0000
0010
0000
0000
1001
0000
0000
0000
0000
0000
0110
0000
0000
0110
0000
0000
0000
0000
0000
,
0000
0000
0000
1001
0000
0000
0000
0000
0000
1001
0000
0000
0000
0000
0000
0000
0001
0000
0010
0000
0100
0000
1000
0000
,
0001
0010
0100
1000
0001
0010
0100
1000
0001
0010
0100
1000
,
0001
0010
0100
1000
0001
0010
0100
1000
0001
0010
0100
1000
,
0001
0000
0010
0000
1000
0000
0110
0000
0000
0110
0000
0000
0110
0000
0000
0001
0000
0000
1010
0000
0000
1010
0000
0000
,
1010
1010
0100
0001
0100
1010
0001
0010
,
1000
0110
1000
0001
0100
1001
0010
0100
,
0010
1100
0001
1100
0001
1100
0001
1000
,
0100
0011
1000
0100
0001
1100
0001
0100
,
1000
0101
0010
0101
0010
0101
0010
0100
,
0001
1100
0001
0100
0010
1001
0100
0010
,
0100
1001
0100
1001
0110
1001
1010
0011
,
1100
0110
0101
1100
1100
1100
1100
1100
,
1100
1100
1100
0000
0000
1001
0000
1010
,
0000
0110
0000
0110
0000
1010
0000
1001
,
0000
0011
0000
0110
0000
0101
0000
1001
,
0000
1100
0000
0110
0000
0101
0000
0101
,
0000
0101
0000
0110
0000
0110
0000
1100
,
0000
1001
0000
0011
0000
1010
0000
1100
,
0000
0110
0000
1001
0000
1010
0000
0110
,
0000
1100
0000
0011
0000
1010
0000
1010
,
0000
1010
0000
0011
0000
1001
0000
1100
,
0000
0110
0000
0011
0000
1001
0000
1100
,
0000
0110
0000
0011
0000
1001
0000
1100
,
0000
0110
0000
1010
0000
1001
0000
1001
,
0000
1001
0000
1010
0000
0110
0000
0011
,
0000
1100
0000
0011
0000
0110
0000
1001
,
0000
1100
0000
0011
0000
0101
0000
1010
,
0000
0110
0000
1100
0000
0110
0000
0110
,
0000
0000
0000
0110
0000
0000
0000
0000
0000
0000
0000
0000
0010
0000
1000
0000
0010
0000
1000
0000
0010
0000
1000
0000
,
0010
0000
1000
0000
0000
0000
0010
0000
0001
0000
0010
0000
0100
0000
0000
0001
0000
0000
1000
0000
0000
0001
0000
0000
,
0001
0000
1000
0100
0010
0100
0011
0000
0000
0000
1010
0000
2020
0000
0000
0000
,
3030
0000
0000
0000
0000
0000
0000
0000
0000
1000
0100
0010
,
0001
0101
0000
1100
,
0000
0000
0000
2200
0000
0000
0000
0000
0000
3300
0000
0000
0000
0000
0000
0000
0000
0000
0001
0000
0010
0000
0100
0000
,
1000
0000
0110
0000
0000
0011
0022
0000
,
0033
0000
0000
0000
0000
0000
0000
0110
,
0000
1100
0000
0011
0000
0000
0110
0000
,
0000
0000
0000
1100
0000
0000
0011
0000
,
0000
1100
0000
0011
0000
0110
0220
0000
,
0330
0000
0000
0000
0000
0000
0000
0000
0000
1000
0100
1000
,
0100
0011
0000
0110
,
0000
0000
0000
0220
0000
0000
0000
0000
0000
0330
0000
0000
0000
0000
0000
0000
0000
0000
0001
0000
0010
0000
0001
0000
,
0010
0000
1100
0000
0000
0101
0202
0000
,
0303
0000
0000
0000
0000
0000
0000
1001
,
0000
0110
0000
1001
0000
0000
0110
0000
,
0000
0000
0000
0000
1000
0100
0011
0000
0000
0000
1100
0000
0000
0000
0011
0000
,
0000
1100
0000
0220
0330
0000
0220
0330
,
0000
0000
0000
1000
0001
0100
0010
1000
,
0100
0010
0000
2002
3003
0000
2002
3003
,
0000
0000
0000
0001
0100
0010
0100
1000
,
0100
0010
0000
0022
0033
0000
0022
0033
,
0000
0000
0000
1000
0100
0001
1000
0100
,
0001
1000
0100
2020
3030
0000
2020
3030
,
0000
0022
0033
2002
3003
0000
2200
3300
,
0000
0220
0000
2330
0000
0000
3002
0000
,
0003
0000
0000
0100
0010
0001
0010
0100
,
1000
0010
0000
0220
0330
0000
0220
0330
,
0000
0000
0000
0010
0001
0100
0010
1000
,
0001
0010
0000
2020
3030
0000
0202
0303
,
0000
0000
0000
1000
0100
0010
0001
0010
,
0100
1000
0000
2000
0000
3000
0000
0000
,
0000
0000
0000
0000
0000
0000
0000
0000
0000
0000
0000
0000
0000
0000
0000
0000
0000
0000
0000
0000
0000
0000
0000
0000
0220
0000
0000
0000
0000
0000
0000
0000
0000
0000
0000
0000
0000
0000
0000
0000
0000
0000
0000
0000
0000
0000
0000
0000
0000
0000
0000
0000
0000
0000
0000
0000
0000
0000
0000
0000
0000
0000
0000
0000
0000
0000
0000
0000
0000
0000
0000
0000
0000
0000
0000
0000
0000
0000
0000
0000
0000
0000
0000
0000
0000
0000
0000
0000
0000
0000
0000
0000
0000
0000
0000
0000
0000
0000
0000
0000
0000
0000
0000
0000
0000
0000
0000
0000
0000
0000
0000
0000
0000
0000
0000
0000
0000
0000
0000
0000
0000
0000
0000
0000
0000
0000
0000
0000
0000
0000
0000
0000
0000
0000
0000
0000
0000
0000
0000
0000
0000
0000
0000
0000
0000
0000
0000
0000
0000
0000
0000
0000
0000
0000
0000
0000
0000
0000
0000
0000
0000
0000
0000
0000
0000
0000
0000
0000
0300
0030
0000
0000
0000
0000
0000
0000
0000
0000
0000
0000
0000
0000
0000
0000
0000
0000
0000
0000
0000
0000
0000
0000
,
0000
0000
0000
1001
1001
0000
0000
0010
,
0000
1000
0000
0001
0000
0100
0000
0010
,
0000
0201
0300
0110
0110
0000
0000
1000
,
0000
0001
0000
0100
0000
0010
0000
1000
,
0000
2100
3000
1010
1010
0000
0000
0010
,
0000
0100
0000
0001
0000
0010
0000
1000
,
0000
1002
0003
0110
0110
0000
0000
0010
,
0000
0001
0000
1000
0000
0010
0000
0001
,
0100
1000
0100
0000
0000
0000
0010
0000
0000
0000
1010
0000
0000
0000
1100
0000
,
0000
1100
0000
1010
0000
0110
0000
0101
,
0000
0011
0000
1010
0000
1001
0000
0101
,
0000
0110
0000
0011
0000
1001
0000
1001
,
0000
1001
0000
0011
0000
0110
0000
1100
,
0000
1001
0000
0011
0000
0110
0000
0101
,
0000
1001
0000
1010
0000
0110
0000
0101
,
0000
1001
0000
1100
0000
0110
0000
0110
,
0000
0110
0000
0101
0000
1001
0000
1100
,
0000
0110
0000
0011
0000
1001
0000
1100
,
0000
0110
0000
0011
0000
1001
0000
1100
,
0000
0110
0000
1010
0000
1001
0000
1001
,
0000
1001
0000
1010
0000
0011
0000
1001
,
0000
0110
0000
1100
0000
1010
0000
0011
,
0000
0110
0000
1010
0000
0101
0000
0011
,
0000
1001
0000
1100
0000
0110
0000
0110
,
0000
0110
0000
1010
0000
0101
0000
1100
,
0000
0011
0000
1001
0110
1001
0110
0000
,
0110
0000
0000
0000
0010
0100
2002
0000
0000
0000
0000
0000
0000
0000
0000
0000
,
0000
3003
0000
0000
;

//---------------dance-single - ----------------
#NOTES:
     dance-single:
     :
     Challenge:
     12:
     1.000,1.000,1.000,0.531,0.511,597.000,241.000,55.000,0.000,1.000:
0000
0000
0000
0000
,
0000
0000
0000
0000
,
0000
0000
0000
0000
,
0000
0000
0000
0000
,
1001
0000
0000
0000
0000
0000
0000
0000
0000
1001
0000
0000
0100
0000
0010
0000
0100
0000
0010
0000
0100
0000
0010
0000
,
0100
0010
0100
0010
0100
0010
0100
0010
0100
0010
0100
0010
,
0100
0010
0100
0010
0100
0010
0100
0010
0100
0010
0100
0010
,
0100
0000
0010
0000
0100
0000
0010
0000
0000
1001
0000
0000
0000
0000
0000
0110
0000
0000
0110
0000
0000
0000
0000
0000
,
0000
0000
0000
1001
0000
0000
0000
0000
0000
1001
0000
0000
0000
0000
0000
0000
0001
0000
0010
0000
0100
0000
1000
0000
,
0001
0010
0100
1000
0001
0010
0100
1000
0001
0010
0100
1000
,
0001
0010
0100
1000
0001
0010
0100
1000
0001
0010
0100
1000
,
0001
0000
0010
0000
1000
0000
0110
0000
0000
0110
0000
0000
0110
0000
0000
0001
0000
0000
1010
0000
0000
1010
0000
0000
,
1010
1010
0100
0001
0100
1010
0001
0010
,
1000
0110
1000
0001
0100
1001
0010
0100
,
0010
1100
0001
1100
0001
1100
0001
1000
,
0100
0011
1000
0100
0001
1100
0001
0100
,
1000
0101
0010
0101
0010
0101
0010
0100
,
0001
1100
0001
0100
0010
1001
0100
0010
,
0100
1001
0100
1001
0110
1001
1010
0011
,
1100
0110
0101
1100
1100
1100
1100
1100
,
1100
1100
1100
0001
0001
1001
1000
1010
,
0010
0110
0100
0110
0010
1010
1000
1001
,
0001
0011
0010
0110
0100
0101
0001
1001
,
1000
1100
0100
0110
0010
0011
0010
0011
,
0010
0011
0001
0101
0100
0101
0001
1001
,
1000
1010
0010
0110
0100
1100
1000
1010
,
0010
0110
0100
1100
1000
1010
0010
0110
,
0100
1100
1000
1100
0100
0110
0100
0110
,
0100
0110
0010
0011
0001
1001
1000
1100
,
0100
0110
0010
0011
0001
1001
1000
1100
,
0100
0110
0010
0011
0001
1001
1000
1100
,
0100
0110
0010
1010
1000
1001
0001
1001
,
0001
1001
0000
1010
0000
0110
0000
0011
,
0000
1100
0000
0011
0000
0110
0000
1001
,
0000
1100
0000
0011
0000
0101
0000
1010
,
0000
0110
0000
1100
0000
0110
0000
0110
,
0000
0000
0000
0110
0000
0000
0000
0000
0000
0000
0000
0000
0010
0000
1000
0000
0010
0000
1000
0000
0010
0000
1000
0000
,
0010
0000
1000
0000
0000
0000
0010
0000
0001
0000
0010
0000
0100
0000
0000
0001
0000
0000
0100
0000
0000
0010
0000
0000
,
0010
0000
1000
0100
0010
0100
0011
0000
0000
0000
1010
0000
2020
0000
0000
0000
,
3030
0000
0000
0000
0000
0000
0000
0000
0000
1000
0100
0010
,
0001
0101
0000
1100
,
0000
0000
0000
2200
0000
0000
0000
0000
0000
3300
0000
0000
0000
0000
0000
0000
0000
0000
0001
0000
0010
0000
0100
0000
,
1000
0000
0110
0000
0000
0011
0022
0000
,
0033
0000
0000
0000
0000
0000
0000
0110
,
0000
1100
0000
0011
0000
0000
0110
0000
,
0000
0000
0000
1100
0000
0000
0011
0000
,
0000
1100
0000
0011
0000
0110
0220
0000
,
0330
0000
0000
0000
0000
0000
0000
0000
0000
1000
0100
1000
,
0100
0011
0000
0110
,
0000
0000
0000
0220
0000
0000
0000
0000
0000
0330
0000
0000
0000
0000
0000
0000
0000
0000
0001
0000
0010
0000
0001
0000
,
0010
0000
1100
0000
0000
0101
0202
0000
,
0303
0000
0000
0000
0000
0000
0000
1001
,
0000
0110
0000
1001
0000
0000
0110
0000
,
0000
0000
0000
0000
1000
0100
0011
0000
0000
0000
1100
0000
0000
0000
0011
0000
,
0000
1100
0000
0220
0330
0000
0220
0330
,
0000
0000
0000
0000
0000
1000
0100
0010
0001
1000
0100
0010
,
0001
0000
1000
0000
0100
0000
0010
0000
0000
2002
0000
0000
3003
0000
0000
0000
0000
0000
2002
0000
0000
3003
0000
0000
,
0000
0000
0000
0000
0000
0001
0010
0100
1000
0001
0010
0100
,
1000
0000
0001
0000
0010
0000
0100
0000
0000
0022
0000
0000
0033
0000
0000
0000
0000
0000
0022
0000
0000
0033
0000
0000
,
0000
0000
0000
0000
0000
0010
0100
0010
0100
0010
0100
0010
,
0100
0000
0010
0000
0100
0000
0010
0000
0000
2020
0000
0000
3030
0000
0000
0000
0000
0000
2020
0000
0000
3030
0000
0000
,
0000
0022
0033
2002
3003
0000
2200
3300
,
0000
0220
0000
2330
0000
0000
3002
0000
,
0003
0000
0000
0000
0000
0010
0001
0010
0001
0010
0001
0010
,
0001
0000
0010
0000
0001
0000
0010
0000
0000
0220
0000
0000
0330
0000
0000
0000
0000
0000
0220
0000
0000
0330
0000
0000
,
0000
0000
0000
0000
0000
1000
0001
1000
0001
1000
0001
1000
,
0001
0000
1000
0000
0001
0000
0000
0000
0000
2020
0000
0000
3030
0000
0000
0000
0000
0000
0202
0000
0000
0303
0000
0000
,
0000
0000
0000
0000
1000
0100
1000
0100
1000
0100
1000
0100
,
1000
0000
0100
0000
1000
0000
0000
0000
0000
2000
0000
0000
0000
0000
0000
3000
0000
0000
0020
0000
0000
0030
0000
0000
,
0000
0000
0000
0000
0000
0000
0000
0000
0000
0000
0000
0000
0000
0000
0000
0000
0000
0000
0000
0000
0000
0000
0000
0000
0220
0000
0000
0000
0000
0000
0000
0000
0000
0000
0000
0000
0000
0000
0000
0000
0000
0000
0000
0000
0000
0000
0000
0000
0000
0000
0000
0000
0000
0000
0000
0000
0000
0000
0000
0000
0000
0000
0000
0000
0000
0000
0000
0000
0000
0000
0000
0000
0000
0000
0000
0000
0000
0000
0000
0000
0000
0000
0000
0000
0000
0000
0000
0000
0000
0000
0000
0000
0000
0000
0000
0000
0000
0000
0000
0000
0000
0000
0000
0000
0000
0000
0000
0000
0000
0000
0000
0000
0000
0000
0000
0000
0000
0000
0000
0000
0000
0000
0000
0000
0000
0000
0000
0000
0000
0000
0000
0000
0000
0000
0000
0000
0000
0000
0000
0000
0000
0000
0000
0000
0000
0000
0000
0000
0000
0000
0000
0000
0000
0000
0000
0000
0000
0000
0000
0000
0000
0000
0000
0000
0000
0000
0000
0000
0300
0030
0000
0000
0000
0000
0000
0000
0000
0000
0000
0000
0000
0000
0000
0000
0000
0000
0000
0000
0000
0000
0000
0000
,
0000
0000
0000
1001
1001
0001
0001
0001
,
0001
0001
0001
0001
0001
0001
0001
0001
,
0001
0201
0300
0110
0110
0100
0100
0100
,
0100
0100
0100
0100
0100
0100
0100
0100
,
0100
2100
3000
1010
1010
1000
1000
1000
,
1000
1000
1000
1000
1000
1000
1000
1000
,
1000
1002
0003
0110
0110
1000
0100
0010
,
0001
0010
0100
1000
0100
0010
0001
0010
,
0100
1000
0100
0000
0000
0000
0010
0000
0010
0000
1010
0000
1000
0000
1100
0000
,
0100
1100
1000
1010
0010
0110
0100
0101
,
0001
0011
0010
1010
1000
1001
0001
0101
,
0100
0110
0010
0011
0001
1001
1000
1001
,
1000
1001
0001
0011
0010
0110
0100
1100
,
1000
1001
0001
0011
0010
0110
0100
0101
,
0001
1001
1000
1010
0010
0110
0100
0101
,
0001
1001
1000
1100
0100
0110
0010
0110
,
0010
0110
0100
0101
0001
1001
1000
1100
,
0100
0110
0010
0011
0001
1001
1000
1100
,
0100
0110
0010
0011
0001
1001
1000
1100
,
0100
0110
0010
1010
1000
1001
0001
1001
,
0001
1001
0000
1010
0000
0011
0000
1001
,
0000
0110
0000
1100
0000
1010
0000
0011
,
0000
0110
0000
1010
0000
0101
0000
0011
,
0000
1001
0000
1100
0000
0110
0000
0110
,
0000
0110
0000
1010
0000
0101
0000
1100
,
0000
0011
0000
1001
0110
1001
0110
0000
,
0110
0000
0000
0000
0010
0100
2002
0000
0000
0000
0000
0000
0000
0000
0000
0000
,
0000
3003
0000
0000
;
